bt天堂,电影天堂

【找电影求片源】加入收藏【高清电影1080P专区】

当前位置: > 恐怖 > 电影下载页面

护士3D/护士/恐怖护士

护士3D/护士/恐怖护士
片名:护士3D/护士/恐怖护士
发布时间:2014-02-13
在线观看:免费高速在线播放秘密通道 http://www.38dy.cn/
注意:请勿必使用迅雷软件(迅雷7)下载本站的免费电影!>>>> 下载帮助  在线播放帮助

该片迅雷下载地址和剧情:
内容由38电影网提供:

◎译  名 护士3D/护士/恐怖护士
◎片  名 Nurse 3D/Nurse/ Nurse 3-D
◎年  代 2013
◎国  家 美国
◎类  别 惊悚
◎语  言 英语
◎字  幕 英文/中文
◎IMDB评分 6.3/10 from 153 users
◎IMDB链接 http://www.imdb.com/title/tt1913166
◎片  长 1hr 23mn
◎导  演 道格拉斯·阿诺科斯基 Douglas Aarniokoski
◎主  演 帕兹·德拉维尔塔 Paz de la Huerta  ....Abby Russell
      卡特里娜·宝登 Katrina Bowden  ....Danni
      贾德·尼尔森 Judd Nelson  ....Dr. Morris
      科宾·布鲁 Corbin Bleu  ....Steve
      波瑞斯·科乔 Boris Kodjoe  ....Detective John Rogan
      奈希·纳什 Niecy Nash  ....Regina
      Adam Herschman  ....Jared
      劳洛·查坦德 Lauro Chartrand  ....Security Guard
      Melanie Scrofano  ....Rachel Adams
      Marc Andrew Smith  ....Doctor
      Layton Morrison  ....Truck Driver
      Yulia Lukin  ....Larry's date
      Joe MacLeod  ....EMT #2
      Jeff Pangman  ....Dr. Robert Price
      Jake Michaels  ....New Dad
      Patrick Kwok-Choon  ....EMT
      Lori Pearlstein  ....Support Speaker
      Amanda Armagon  ....Key Largo receptionist (uncredited)
      Brittany Adams  ....Young Nurse
      Michael Therriault  ....Anatomy Professor
      Stephane Rodrigue  ....ER Doctor
      Vanessa Lai Fox  ....Nurse Hansen
      Katia Peel  ....Young Abby
      Adam Benish  ....Peter Larson (as Adam Benish)
      Blake Mawson  ....Bloody Boyfriend On Stretcher
      


◎简  介 

故事讲述的是邪恶护士的暗黑故事,主人公艾比·罗素(帕兹·德拉维尔塔饰)是一名护士长,白天她看起来童叟无欺,但每到晚上,她就露出真面目,以性感诱骗男人,用残酷的死亡来暴露他们猥琐的真面目。新来的年轻护士丹妮(卡特里娜·宝登饰)成为艾比眼中的猎物,一夜在酒吧狂欢之后,丹妮被艾比带回家中一番云雨。然而已有男友的丹妮却拒绝了艾比的示爱,而后一系列惊悚的事件开始围绕她发生。丹妮开始怀疑这一切与艾比有关……


      Format : Matroska
      File size : 1.96 GiB
      Duration : 1h 23mn
      Overall bit rate : 3 342 Kbps
      Encoded date : UTC 2010-02-22 21:41:31
      Writing application : mkvmerge v5.9.0 ('On The Loose') built on Dec  9 2012 15:37:01
      Writing library : libebml v1.3.0 + libmatroska v1.4.0
   Video #1
      ID : 1
      Format : AVC
      Format/Info : Advanced Video Codec
      Format profile : High@L3.1
      Format settings, CABAC : Yes
      Format settings, ReFrames : 4 frames
      Format settings, GOP : M=4, N=52
      Muxing mode : Header stripping
      Codec ID : V_MPEG4/ISO/AVC
      Duration : 1h 23mn
      Bit rate : 3 000 Kbps
      Width : 1 280 pixels
      Height : 530 pixels
      Display aspect ratio : 2.40:1
      Frame rate : 23.976 fps
      Color space : YUV
      Chroma subsampling : 4:2:0
      Bit depth : 8 bits
      Scan type : Progressive
      Bits/(Pixel*Frame) : 0.184
      Stream size : 1.69 GiB (87%)
      Writing library : x264 core 116 r2074 2641b9e
    
   Audio #2
      ID : 2
      Format : AC-3
      Format/Info : Audio Coding 3
      Mode extension : CM (complete main)
      Muxing mode : Header stripping
      Codec ID : A_AC3
      Duration : 1h 23mn
      Bit rate mode : Constant
      Bit rate : 384 Kbps
      Channel(s) : 6 channels
      Channel positions : Front: L C R, Side: L R, LFE
      Sampling rate : 48.0 KHz
      Bit depth : 16 bits
      Compression mode : Lossy
      Stream size : 230 MiB (11%)
      Language : English
[下载地址]:                 

ftp://www:piaohua.com@dy44.piaohua.com:7850/飘花电影www.xiaozhizhu.net恐怖护士720p.中英.mkv

 

你有可能还喜欢下面的这些电影

【注:使用手机迅雷版可以直接播放滴!】下载不了电影__请看这里
本类下载排行
本类更新排行
资源提供:电影天堂 更多最新电影资源,就在38dy.cn
本站所有资源来自互联网,如果无意中侵犯了您的权利,请与我们联系:2024618094@qq.com
知道创宇云安全