bt天堂,电影天堂

【找电影求片源】加入收藏【高清电影1080P专区】

当前位置: > 恐怖 > 电影下载页面

步步追魂

步步追魂
片名:步步追魂
发布时间:2013-12-14
在线观看:免费高速在线播放秘密通道 http://www.38dy.cn/
注意:请勿必使用迅雷软件(迅雷7)下载本站的免费电影!>>>> 下载帮助  在线播放帮助

该片迅雷下载地址和剧情:
内容由38电影网提供:

◎译  名 步步追魂
◎片  名 Bu Bu Zhui Hun
◎年  代 2013
◎国  家 中国大陆
◎类  别 悬疑 / 惊悚
◎语  言 汉语普通话
◎字  幕 中文
◎IMDB评分  N/A
◎IMDB链接  N/A
◎文件格式 x264 + AC3
◎视频尺寸 1920x1080
◎文件大小 1CD  2.52 GB
◎片  长 1h 29mn
◎导  演 江澄 Cheng Jiang
◎主  演 袁成杰 Chengjie Yuan
                     谭卓 Zhuo Tan
                     徐洁儿 Jill Hsu
                     米学东 Xuedong Mi
                     徐程 Cheng Xu


◎简  介 

 

        阳光明媚的清晨,医生周劼(袁成杰饰)被告知自己的病人离奇死亡,尸检结果却一切正常。为了给病人家属一个交代,周劼带着疑虑开始了自己的调查。随着调查的深入,周劼发现这医院的一切并非表面看上去的那么简单,期间所接触过的同事也都接二连三离奇遇害,自己的女友陈珊珊(谭卓饰)也受到了神秘的死亡威胁。与此同时,一个古怪的黑影经常出现在他眼前,一个神秘的金属物品成为了揭开真相的唯一线索,里面到底装着什么?病人为何会离奇死亡?看似光鲜的医院内到底蕴藏着什么不可告人的秘密?被逼入绝境的周劼能否与女友一起逃出生天?


      Format : Matroska
      File size : 2.52 GiB
      Duration : 1h 29mn
      Overall bit rate : 4 046 Kbps
      Encoded date : UTC 2010-02-22 21:41:31
      Writing application : mkvmerge v5.9.0 ('On The Loose') built on Dec  9 2012 15:37:01
      Writing library : libebml v1.3.0 + libmatroska v1.4.0
   Video #1
      ID : 1
      Format : AVC
      Format/Info : Advanced Video Codec
      Format profile : Main@L4.0
      Format settings, CABAC : Yes
      Format settings, ReFrames : 2 frames
      Muxing mode : Container profile=Unknown@4.0
      Codec ID : V_MPEG4/ISO/AVC
      Duration : 1h 29mn
      Bit rate : 3 774 Kbps
      Width : 1 920 pixels
      Height : 1 080 pixels
      Display aspect ratio : 16:9
      Frame rate mode : Variable
      Frame rate : 25.000 fps
      Resolution : 8 bits
      Colorimetry : 4:2:0
      Scan type : Progressive
      Bits/(Pixel*Frame) : 0.073
      Stream size : 2.35 GiB (93%)
      Writing library : avc encoder v1.9
   Audio #2
      ID : 2
      Format : AC-3
      Format/Info : Audio Coding 3
      Codec ID : A_AC3
      Duration : 1h 29mn
      Bit rate mode : Constant
      Bit rate : 192 Kbps
      Channel(s) : 2 channels
      Channel positions : L R
      Sampling rate : 44.1 KHz
      Stream size : 122 MiB (5%)
电影截图




[下载地址]:        

手机电影下载:http://www.8edy.com
ftp://www:piaohua.com@dy44.piaohua.com:7553/飘花电影piaohua.com步步追魂1080p.HDRip中文字幕.mkv

你有可能还喜欢下面的这些电影

【注:使用手机迅雷版可以直接播放滴!】下载不了电影__请看这里
本类下载排行
本类更新排行
资源提供:电影天堂 更多最新电影资源,就在38dy.cn
本站所有资源来自互联网,如果无意中侵犯了您的权利,请与我们联系:2024618094@qq.com
知道创宇云安全